Power.Rangers.2017.720p.BRRIP.HEVC.x265.AC3-MAJESTiC

  • Category Movies
  • Type HD
  • Language English
  • Total size 1.7 GB
  • Uploaded By showstopper
  • Downloads 1510
  • Last checked 2 days ago
  • Date uploaded 6 days ago
  • Seeders 133
  • Leechers 56

Power Rangers

ActionAdventureScience Fiction

Saban's Power Rangers follows five ordinary teens who must become something extraordinary when they learn that their small town of Angel Grove — and the world — is on the verge of being obliterated by an alien threat. Chosen by destiny, our heroes quickly discover they are the only ones who can save the planet. But to do so, they will have to overcome their real-life issues and before it’s too late, band together as the Power Rangers.

Infohash : 13E23C83FA7311C111078C84775A5820DBDBF536

Power.Rangers.2017.720p.BRRIP.HEVC.x265.AC3-MAJESTiC

ImDb: http://www.imdb.com/title/tt3717490



Complete name : Power.Rangers.2017.720p.BRRIP.HEVC.x265.AC3-MAJESTiC.mkv
Format : Matroska
Format version : Version 4 / Version 2
File size : 1.71 GiB
Duration : 2 h 3 min
Overall bit rate : 1 978 kb/s
Encoded date : UTC 2017-08-10 18:04:47
Writing application : mkvmerge v8.9.0 ('Father Daughter') 64bit
Writing library : libebml v1.3.3 + libmatroska v1.4.4

Video
ID : 1
Format : HEVC
Format/Info : High Efficiency Video Coding
Format profile : [email protected]@Main
Codec ID : V_MPEGH/ISO/HEVC
Duration : 2 h 3 min
Bit rate : 1 336 kb/s
Width : 1 280 pixels
Height : 536 pixels
Display aspect ratio : 2.40:1
Frame rate mode : Constant
Frame rate : 23.976 (24000/1001) FPS
Color space : YUV
Chroma subsampling : 4:2:0
Bit depth : 8 bits
Bits/(Pixel*Frame) : 0.081
Stream size : 1.16 GiB (68%)
Writing library : x265 1.9+54-291beccb6760:[Windows][GCC 5.3.0][64 bit] 8bit+10bit+12bit
Encoding settings : wpp / ctu=32 / min-cu-size=16 / max-tu-size=32 / tu-intra-depth=1 / tu-inter-depth=1 / me=2 / subme=2 / merange=32 / no-rect / no-amp / max-merge=2 / temporal-mvp / early-skip / rdpenalty=0 / no-tskip / no-tskip-fast / no-strong-intra-smoothing / no-lossless / no-cu-lossless / no-constrained-intra / fast-intra / open-gop / no-temporal-layers / interlace=0 / keyint=250 / min-keyint=23 / scenecut=0 / rc-lookahead=5 / lookahead-slices=0 / bframes=4 / bframe-bias=0 / b-adapt=0 / ref=3 / limit-refs=0 / no-limit-modes / no-weightp / no-weightb / aq-mode=1 / qg-size=32 / aq-strength=0.00 / cbqpoffs=0 / crqpoffs=0 / rd=2 / psy-rd=2.00 / rdoq-level=0 / psy-rdoq=0.00 / no-rd-refine / no-signhide / deblock / no-sao / no-sao-non-deblock / b-pyramid / cutree / no-intra-refresh / rc=crf / crf=19.0 / qcomp=0.60 / qpmin=0 / qpmax=51 / qpstep=4 / vbv-maxrate=10000 / vbv-bufsize=10000 / crf-max=0.0 / ipratio=1.40 / pbratio=1.30
Default : Yes
Forced : No

Audio
ID : 2
Format : AC-3
Format/Info : Audio Coding 3
Format settings, Endianness : Big
Codec ID : A_AC3
Duration : 2 h 3 min
Bit rate mode : Constant
Bit rate : 640 kb/s
Channel(s) : 6 channels
Channel positions : Front: L C R, Side: L R, LFE
Sampling rate : 48.0 kHz
Frame rate : 31.250 FPS (1536 spf)
Bit depth : 16 bits
Compression mode : Lossy
Stream size : 568 MiB (32%)
Language : English
Service kind : Complete Main
Default : Yes
Forced : No

Menu
00:00:00.000 : en:00:00:00.000
00:07:00.253 : en:00:07:00.253
00:13:45.241 : en:00:13:45.241
00:18:57.720 : en:00:18:57.720
00:25:49.590 : en:00:25:49.590
00:31:17.125 : en:00:31:17.125
00:38:24.761 : en:00:38:24.761
00:50:49.046 : en:00:50:49.046
01:00:00.221 : en:01:00:00.221
01:08:09.877 : en:01:08:09.877
01:17:06.747 : en:01:17:06.747
01:24:41.743 : en:01:24:41.743
01:30:45.023 : en:01:30:45.023
01:34:18.861 : en:01:34:18.861
01:44:32.933 : en:01:44:32.933
01:51:46.158 : en:01:51:46.158






Click To View Screenshot

Click To View Screenshot

Click To View Screenshot

Files:

Power.Rangers.2017.720p.BRRIP.HEVC.x265.AC3-MAJESTiC
  • Power.Rangers.2017.720p.BRRIP.HEVC.x265.AC3-MAJESTiC.mkv (1.7 GB)
  • Power.Rangers.2017.720p.BRRIP.HEVC.x265.AC3-MAJESTiC.nfo (1.0 KB)
  • Sample
    • sample.mkv (11.0 MB)

There are currently no comments. Feel free to leave one :)

Code:

  • udp://tracker.coppersurfer.tk:6969/announce
  • udp://tracker.pirateparty.gr:6969/announce
  • udp://shadowshq.yi.org:6969/announce
  • udp://eddie4.nl:6969/announce
  • udp://tracker.leechers-paradise.org:6969/announce
  • udp://tracker.opentrackr.org:1337/announce
  • udp://p4p.arenabg.ch:1337/announce
  • udp://p4p.arenabg.com:1337/announce
  • udp://9.rarbg.me:2710/announce
  • udp://9.rarbg.to:2710/announce
  • udp://ipv4.tracker.harry.lu:80/announce
  • udp://tracker.grepler.com:6969/announce
  • udp://public.popcorn-tracker.org:6969/announce
  • udp://tracker.opentrackr.org:1337/announce
  • udp://tracker.zer0day.to:1337/announce