18+ Ravenswood 2017 Movies HDRip XviD AAC New Source with Sample ...

  • Category Movies
  • Type HD
  • Language English
  • Total size 706.1 MB
  • Uploaded By nehalpuja
  • Downloads 1010
  • Last checked 1 month ago
  • Date uploaded 2 months ago
  • Seeders 15
  • Leechers 7

Infohash : B6B6CC3A3D918DC29FA2AD9CB20930E13CF0CC0F

18+ Ravenswood 2017 Movies HDRip XviD AAC New Source with Sample ☻rDX☻
===============================================================================================

SCREEN SHOTS:



or

http://postimage.co.nr/2017/6/ctr/1.html

File size : 694 MiB
Duration : 1 h 28 min
Overall bit rate : 1 100 kb/s
Movie name : 18+ Ravenswood 2017 Movies HDRip XviD AAC New Source ☻rDX☻

Video
ID : 1
Format : MPEG-4 Visual
Format profile : Advanced [email protected]
Format settings, BVOP : 2
Format settings, QPel : No
Format settings, GMC : No warppoints
Format settings, Matrix : Default (H.263)
Muxing mode : Packed bitstream
Codec ID : V_MS/VFW/FOURCC / XVID
Codec ID/Hint : XviD
Duration : 1 h 28 min
Bit rate : 950 kb/s
Width : 640 pixels
Height : 272 pixels
Display aspect ratio : 2.35:1
Frame rate mode : Constant
Frame rate : 25.000 FPS
Color space : YUV
Chroma subsampling : 4:2:0
Bit depth : 8 bits
Scan type : Progressive
Compression mode : Lossy
Bits/(Pixel*Frame) : 0.218
Stream size : 599 MiB (86%)
Title : ☻rDX☻
Writing library : XviD 64
Default : Yes
Forced : No

Audio
ID : 2
Format : MPEG Audio
Format version : Version 1
Format profile : Layer 3
Mode : Joint stereo
Mode extension : MS Stereo
Codec ID : A_MPEG/L3
Codec ID/Hint : MP3
Duration : 1 h 28 min
Bit rate mode : Constant
Bit rate : 128 kb/s
Channel(s) : 2 channels
Sampling rate : 48.0 kHz
Compression mode : Lossy
Stream size : 80.7 MiB (12%)
Title : ☻rDX☻
Writing library : LAME3.99r
Encoding settings : -m j -V 4 -q 3 -lowpass 17 -b 128
Default : Yes
Forced : No



IMDB : http://www.imdb.com/title/tt5194048

Files:

18+ Ravenswood 2017 Movies HDRip XviD AAC New Source with Sample ☻rDX☻
  • Sample ~ 18+ Ravenswood 2017 Movies HDRip XviD AAC New Source ☻rDX☻.mkv (12.3 MB)
  • 18+ Ravenswood 2017 Movies HDRip XviD AAC New Source ☻rDX☻.mkv (693.9 MB)

There are currently no comments. Feel free to leave one :)

Code:

  • udp://tracker.coppersurfer.tk:6969/announce
  • udp://tracker.openbittorrent.com:80/announce
  • udp://glotorrents.pw:6969/announce
  • udp://tracker.publicbt.com:80/announce
  • http://retracker.krs-ix.ru/announce
  • udp://tracker.pomf.se:80/announce
  • udp://explodie.org:6969/announce
  • http://mgtracker.org:2710/announce
  • http://tracker.aletorrenty.pl:2710/announce
  • http://tracker.btcake.com/announce
  • udp://tracker.openbittorrent.com:80/announce
  • udp://tracker.leechers-paradise.org:6969/announce
  • udp://coppersurfer.tk:6969/announce