Romeo Must Die 2000 (1080p Bluray x265 HEVC 10bit AAC 5.1 Tigole)...

  • Category Movies
  • Type HEVC/x265
  • Language English
  • Total size 2.9 GB
  • Uploaded By UTRplus
  • Downloads 1026
  • Last checked 1 month ago
  • Date uploaded 2 months ago
  • Seeders 22
  • Leechers 5

Romeo Must Die

ActionCrimeThriller

Two warring gang families (one African-American, the other Chinese) maneuver for bragging rights to the Oakland, California, docks. Hang SIng and Trish O'Day uncover a trail of deceit that leaves most of the warring factions dead … or worse!

Infohash : E517221D90F9E00F34E442EBCE9F64D32415D8B3



Romeo Must Die 2000 in 1080p, encoded with x265 in HEVC and AAC 5.1 English, with subtitles!
Encoded using the time consuming 2 pass, 10 bit color at 2750 kbps, from a Blu-ray source, for the highest quality possible.



Media Information

Code:

General
Format : Matroska
Format version : Version 4 / Version 2
File size : 2.50 GiB
Duration : 1 h 55 min
Overall bit rate : 3 104 kb/s
Movie name : Romeo Must Die
Encoded date : UTC 2017-05-23 18:40:10
Writing application : mkvmerge v9.6.0 ('Slave To Your Mind') 64bit
Writing library : libebml v1.3.4 + libmatroska v1.4.5

Video
ID : 1
Format : HEVC
Format/Info : High Efficiency Video Coding
Format profile : Main [email protected]@Main
Codec ID : V_MPEGH/ISO/HEVC
Duration : 1 h 55 min
Bit rate : 2 730 kb/s
Width : 1 920 pixels
Height : 800 pixels
Display aspect ratio : 2.40:1
Frame rate mode : Constant
Frame rate : 23.976 (24000/1001) FPS
Color space : YUV
Chroma subsampling : 4:2:0
Bit depth : 10 bits
Bits/(Pixel*Frame) : 0.074
Stream size : 2.19 GiB (88%)
Writing library : x265 2.4+22-c102c809fc4f:[Windows][GCC 6.3.0][64 bit] 10bit
Encoding settings : cpuid=1173503 / frame-threads=3 / numa-pools=8 / wpp / no-pmode / no-pme / no-psnr / no-ssim / log-level=2 / input-csp=1 / input-res=1920x800 / interlace=0 / total-frames=165511 / level-idc=0 / high-tier=1 / uhd-bd=0 / ref=4 / no-allow-non-conformance / no-repeat-headers / annexb / no-aud / no-hrd / info / hash=0 / no-temporal-layers / open-gop / min-keyint=23 / keyint=250 / bframes=4 / b-adapt=2 / b-pyramid / bframe-bias=0 / rc-lookahead=25 / lookahead-slices=4 / scenecut=40 / no-intra-refresh / ctu=64 / min-cu-size=8 / rect / no-amp / max-tu-size=32 / tu-inter-depth=1 / tu-intra-depth=1 / limit-tu=0 / rdoq-level=2 / dynamic-rd=0.00 / no-ssim-rd / signhide / no-tskip / nr-intra=0 / nr-inter=0 / no-constrained-intra / strong-intra-smoothing / max-merge=3 / limit-refs=3 / limit-modes / me=3 / subme=3 / merange=57 / temporal-mvp / weightp / no-weightb / no-analyze-src-pics / deblock=0:0 / sao / no-sao-non-deblock / rd=4 / no-early-skip / rskip / no-fast-intra / no-tskip-fast / no-cu-lossless / no-b-intra / rdpenalty=0 / psy-rd=2.00 / psy-rdoq=1.00 / no-rd-refine / analysis-mode=0 / no-lossless / cbqpoffs=0 / crqpoffs=0 / rc=abr / bitrate=2731 / qcomp=0.60 / qpstep=4 / stats-write=0 / stats-read=2 / cplxblur=20.0 / qblur=0.5 / ipratio=1.40 / pbratio=1.30 / aq-mode=2 / aq-strength=1.00 / cutree / zone-count=0 / no-strict-cbr / qg-size=32 / no-rc-grain / qpmax=69 / qpmin=0 / sar=0 / overscan=0 / videoformat=5 / range=0 / colorprim=2 / transfer=2 / colormatrix=2 / chromaloc=0 / display-window=0 / max-cll=0,0 / min-luma=0 / max-luma=1023 / log2-max-poc-lsb=8 / vui-timing-info / vui-hrd-info / slices=1 / opt-qp-pps / opt-ref-list-length-pps / no-multi-pass-opt-rps / scenecut-bias=0.05 / no-opt-cu-delta-qp / no-aq-motion / no-hdr / no-hdr-opt / no-dhdr10-opt / refine-level=5 / no-limit-sao / ctu-info=0
Default : Yes
Forced : No

Audio
ID : 2
Format : AAC
Format/Info : Advanced Audio Codec
Format profile : LC
Codec ID : A_AAC
Duration : 1 h 55 min
Bit rate : 337 kb/s
Channel(s) : 6 channels
Channel positions : Front: L C R, Side: L R, LFE
Sampling rate : 48.0 kHz
Frame rate : 46.875 FPS (1024 spf)
Compression mode : Lossy
Delay relative to video : 20 ms
Stream size : 278 MiB (11%)
Language : English
Default : Yes
Forced : No

Text #1
ID : 3
Format : VobSub
Muxing mode : zlib
Codec ID : S_VOBSUB
Codec ID/Info : Picture based subtitle format used on DVDs
Duration : 1 h 54 min
Bit rate : 4 005 b/s
Count of elements : 1092
Stream size : 3.28 MiB (0%)
Language : English
Default : No
Forced : No

Text #2
ID : 4
Format : VobSub
Muxing mode : zlib
Codec ID : S_VOBSUB
Codec ID/Info : Picture based subtitle format used on DVDs
Duration : 1 h 51 min
Bit rate : 3 434 b/s
Count of elements : 758
Stream size : 2.74 MiB (0%)
Language : Danish
Default : No
Forced : No

Text #3
ID : 5
Format : VobSub
Muxing mode : zlib
Codec ID : S_VOBSUB
Codec ID/Info : Picture based subtitle format used on DVDs
Duration : 1 h 54 min
Bit rate : 3 432 b/s
Count of elements : 747
Stream size : 2.81 MiB (0%)
Language : Finnish
Default : No
Forced : No

Text #4
ID : 6
Format : VobSub
Muxing mode : zlib
Codec ID : S_VOBSUB
Codec ID/Info : Picture based subtitle format used on DVDs
Duration : 1 h 54 min
Bit rate : 3 531 b/s
Count of elements : 1021
Stream size : 2.89 MiB (0%)
Language : French
Default : No
Forced : No

Text #5
ID : 7
Format : VobSub
Muxing mode : zlib
Codec ID : S_VOBSUB
Codec ID/Info : Picture based subtitle format used on DVDs
Duration : 1 h 54 min
Bit rate : 4 902 b/s
Count of elements : 1111
Stream size : 4.01 MiB (0%)
Language : German
Default : No
Forced : No

Text #6
ID : 8
Format : VobSub
Muxing mode : zlib
Codec ID : S_VOBSUB
Codec ID/Info : Picture based subtitle format used on DVDs
Duration : 1 h 43 min
Bit rate : 372 b/s
Count of elements : 74
Stream size : 283 KiB (0%)
Title : Forced
Language : German
Default : No
Forced : No

Text #7
ID : 9
Format : VobSub
Muxing mode : zlib
Codec ID : S_VOBSUB
Codec ID/Info : Picture based subtitle format used on DVDs
Duration : 1 h 54 min
Bit rate : 3 909 b/s
Count of elements : 1167
Stream size : 3.20 MiB (0%)
Language : Italian
Default : No
Forced : No

Text #8
ID : 10
Format : VobSub
Muxing mode : zlib
Codec ID : S_VOBSUB
Codec ID/Info : Picture based subtitle format used on DVDs
Duration : 1 h 51 min
Bit rate : 3 838 b/s
Count of elements : 868
Stream size : 3.06 MiB (0%)
Language : Norwegian Bokmal
Default : No
Forced : No

Text #9
ID : 11
Format : VobSub
Muxing mode : zlib
Codec ID : S_VOBSUB
Codec ID/Info : Picture based subtitle format used on DVDs
Duration : 1 h 54 min
Bit rate : 3 887 b/s
Count of elements : 1080
Stream size : 3.18 MiB (0%)
Language : Spanish
Default : No
Forced : No

Text #10
ID : 12
Format : VobSub
Muxing mode : zlib
Codec ID : S_VOBSUB
Codec ID/Info : Picture based subtitle format used on DVDs
Duration : 1 h 51 min
Bit rate : 3 276 b/s
Count of elements : 696
Stream size : 2.61 MiB (0%)
Language : Swedish
Default : No
Forced : No

Menu
00:00:00.000 : en:Chapter 01
00:02:38.324 : en:Chapter 02
00:07:15.518 : en:Chapter 03
00:11:06.749 : en:Chapter 04
00:13:12.374 : en:Chapter 05
00:15:01.984 : en:Chapter 06
00:16:57.307 : en:Chapter 07
00:18:46.208 : en:Chapter 08
00:21:10.978 : en:Chapter 09
00:22:36.313 : en:Chapter 10
00:27:25.185 : en:Chapter 11
00:29:09.247 : en:Chapter 12
00:30:58.273 : en:Chapter 13
00:33:52.280 : en:Chapter 14
00:36:12.044 : en:Chapter 15
00:39:39.877 : en:Chapter 16
00:42:30.464 : en:Chapter 17
00:44:34.338 : en:Chapter 18
00:47:22.256 : en:Chapter 19
00:48:59.019 : en:Chapter 20
00:50:47.419 : en:Chapter 21
00:54:45.949 : en:Chapter 22
00:56:32.639 : en:Chapter 23
01:00:40.553 : en:Chapter 24
01:03:13.873 : en:Chapter 25
01:05:33.846 : en:Chapter 26
01:09:48.517 : en:Chapter 27
01:12:52.201 : en:Chapter 28
01:14:24.042 : en:Chapter 29
01:17:53.460 : en:Chapter 30
01:21:09.239 : en:Chapter 31
01:25:28.998 : en:Chapter 32
01:29:56.599 : en:Chapter 33
01:34:36.671 : en:Chapter 34
01:37:07.196 : en:Chapter 35
01:40:54.882 : en:Chapter 36
01:43:13.687 : en:Chapter 37
01:47:47.377 : en:Chapter 38
01:49:59.259 : en:Chapter 39


Source Information

Code:

Complete name : Romeo_Must_Die_t03.mkv
File size : 29.8 GiB
Duration : 1 h 55 min
Overall bit rate mode : Variable
Overall bit rate : 37.1 Mb/s


Files:

Romeo Must Die 2000 (1080p Bluray x265 HEVC 10bit AAC 5.1 Tigole) Featurettes
  • Aaliyah - Try Again.mkv (29.6 MB)
  • Aaliyah featuring DMX - Come Back in One Piece.mkv (26.2 MB)
  • Anatomy of a Stunt.mkv (35.3 MB)
  • Diary of a Mad Bomber.mkv (29.8 MB)
  • Flight Zone - A Benz, a Bike, a Babe and Some Bad-Ass Kung Fu.mkv (21.2 MB)
  • Flight Zone - Aaliyah is Trish.mkv (19.7 MB)
  • Flight Zone - Anthony Anderson is Maurice.mkv (17.2 MB)
  • Flight Zone - Jet Li is Han.mkv (19.4 MB)
  • Flight Zone - Kung Fu Football.mkv (16.8 MB)
  • Flight Zone - Master on Fire.mkv (13.6 MB)
  • Flight Zone - The Hose.mkv (14.7 MB)
  • Flight Zone - The Stair Dance.mkv (8.4 MB)
  • HBO First Look - The Making of.mkv (86.7 MB)
  • Inside the Visual Effects Process.mkv (19.1 MB)
  • The Making of Try Again.mkv (34.7 MB)
  • The Sound Mix.mkv (7.8 MB)
  • Trailer 1.mkv (8.8 MB)
  • Trailer 2.mkv (9.1 MB)
  • Romeo Must Die 2000 (1080p x265 10bit Tigole).mkv (2.5 GB)

Comments

Code:

  • udp://tracker.torrent.eu.org:451/announce
  • udp://tracker.opentrackr.org:1337/announce
  • udp://tracker.coppersurfer.tk:6969/announce