The Expendables 3 2014 Unrated REPACK (1080p Bluray x265 HEVC 10b...

  • Category Movies
  • Type HEVC/x265
  • Language English
  • Total size 4.2 GB
  • Uploaded By UTRplus
  • Downloads 983
  • Last checked 1 month ago
  • Date uploaded 2 months ago
  • Seeders 18
  • Leechers 10

The Expendables 3

ActionAdventureThriller

Barney (Stallone), Christmas (Statham) and the rest of the team comes face-to-face with Conrad Stonebanks (Gibson), who years ago co-founded The Expendables with Barney. Stonebanks subsequently became a ruthless arms trader and someone who Barney was forced to kill... or so he thought. Stonebanks, who eluded death once before, now is making it his mission to end The Expendables -- but Barney has other plans. Barney decides that he has to fight old blood with new blood, and brings in a new era of Expendables team members, recruiting individuals who are younger, faster and more tech-savvy. The latest mission becomes a clash of classic old-school style versus high-tech expertise in the Expendables' most personal battle yet.

Infohash : A7E4000D19C0B0950C5B9458B5C4F1190EDA60BF



The Expendables 3 2014 Unrated in 1080p, encoded with x265 in HEVC and AAC 7.1 English, with subtitles!
Encoded using the time consuming 2 pass, 10 bit color at 2750 kbps, from a Blu-ray source, for the highest quality possible.

Note: The original release had a repeated scene. Apekat gave me the wrong playlist..



Media Information

Code:

General
Format : Matroska
Format version : Version 4 / Version 2
File size : 3.11 GiB
Duration : 2 h 11 min
Overall bit rate : 3 383 kb/s
Movie name : Expendables 3
Encoded date : UTC 2017-06-16 17:56:59
Writing application : mkvmerge v12.0.0 ('Trust / Lust') 64bit
Writing library : libebml v1.3.4 + libmatroska v1.4.5

Video
ID : 1
Format : HEVC
Format/Info : High Efficiency Video Coding
Format profile : Main [email protected]@Main
Codec ID : V_MPEGH/ISO/HEVC
Duration : 2 h 11 min
Bit rate : 2 746 kb/s
Width : 1 920 pixels
Height : 800 pixels
Display aspect ratio : 2.40:1
Frame rate mode : Constant
Frame rate : 23.976 (24000/1001) FPS
Color space : YUV
Chroma subsampling : 4:2:0
Bit depth : 10 bits
Bits/(Pixel*Frame) : 0.075
Stream size : 2.52 GiB (81%)
Writing library : x265 2.4+61-28bbc349d170:[Windows][GCC 6.3.0][64 bit] 10bit
Encoding settings : cpuid=1173503 / frame-threads=3 / numa-pools=8 / wpp / no-pmode / no-pme / no-psnr / no-ssim / log-level=2 / input-csp=1 / input-res=1920x800 / interlace=0 / total-frames=189206 / level-idc=0 / high-tier=1 / uhd-bd=0 / ref=4 / no-allow-non-conformance / no-repeat-headers / annexb / no-aud / no-hrd / info / hash=0 / no-temporal-layers / open-gop / min-keyint=23 / keyint=250 / bframes=4 / b-adapt=2 / b-pyramid / bframe-bias=0 / rc-lookahead=25 / lookahead-slices=4 / scenecut=40 / no-intra-refresh / ctu=64 / min-cu-size=8 / rect / no-amp / max-tu-size=32 / tu-inter-depth=1 / tu-intra-depth=1 / limit-tu=0 / rdoq-level=2 / dynamic-rd=0.00 / no-ssim-rd / signhide / no-tskip / nr-intra=0 / nr-inter=0 / no-constrained-intra / strong-intra-smoothing / max-merge=3 / limit-refs=3 / limit-modes / me=3 / subme=3 / merange=57 / temporal-mvp / weightp / no-weightb / no-analyze-src-pics / deblock=0:0 / sao / no-sao-non-deblock / rd=4 / no-early-skip / rskip / no-fast-intra / no-tskip-fast / no-cu-lossless / no-b-intra / rdpenalty=0 / psy-rd=2.00 / psy-rdoq=1.00 / no-rd-refine / analysis-mode=0 / no-lossless / cbqpoffs=0 / crqpoffs=0 / rc=abr / bitrate=2750 / qcomp=0.60 / qpstep=4 / stats-write=0 / stats-read=2 / cplxblur=20.0 / qblur=0.5 / ipratio=1.40 / pbratio=1.30 / aq-mode=2 / aq-strength=1.00 / cutree / zone-count=0 / no-strict-cbr / qg-size=32 / no-rc-grain / qpmax=69 / qpmin=0 / sar=0 / overscan=0 / videoformat=5 / range=0 / colorprim=2 / transfer=2 / colormatrix=2 / chromaloc=0 / display-window=0 / max-cll=0,0 / min-luma=0 / max-luma=1023 / log2-max-poc-lsb=8 / vui-timing-info / vui-hrd-info / slices=1 / opt-qp-pps / opt-ref-list-length-pps / no-multi-pass-opt-rps / scenecut-bias=0.05 / no-opt-cu-delta-qp / no-aq-motion / no-hdr / no-hdr-opt / no-dhdr10-opt / refine-level=5 / scale-factor=0 / refine-intra=0 / refine-inter=0 / refine-mv=0 / no-limit-sao / ctu-info=0
Default : Yes
Forced : No

Audio
ID : 2
Format : AAC
Format/Info : Advanced Audio Codec
Format profile : LC
Codec ID : A_AAC
Duration : 2 h 11 min
Bit rate : 615 kb/s
Channel(s) : 8 channels
Channel positions : Front: L C R, Side: 4, LFE
Sampling rate : 48.0 kHz
Frame rate : 46.875 FPS (1024 spf)
Compression mode : Lossy
Delay relative to video : 20 ms
Stream size : 579 MiB (18%)
Language : English
Default : No
Forced : No

Text #1
ID : 3
Format : VobSub
Muxing mode : zlib
Codec ID : S_VOBSUB
Codec ID/Info : Picture based subtitle format used on DVDs
Duration : 1 h 59 min
Bit rate : 4 746 b/s
Count of elements : 1239
Stream size : 4.04 MiB (0%)
Language : English
Default : No
Forced : No

Text #2
ID : 4
Format : VobSub
Muxing mode : zlib
Codec ID : S_VOBSUB
Codec ID/Info : Picture based subtitle format used on DVDs
Duration : 1 h 59 min
Bit rate : 5 732 b/s
Count of elements : 1638
Stream size : 4.91 MiB (0%)
Language : English
Default : No
Forced : No

Text #3
ID : 5
Format : VobSub
Muxing mode : zlib
Codec ID : S_VOBSUB
Codec ID/Info : Picture based subtitle format used on DVDs
Duration : 2 h 10 min
Bit rate : 5 398 b/s
Count of elements : 1311
Stream size : 5.04 MiB (0%)
Language : German
Default : No
Forced : No

Text #4
ID : 6
Format : VobSub
Muxing mode : zlib
Codec ID : S_VOBSUB
Codec ID/Info : Picture based subtitle format used on DVDs
Duration : 5 s 286 ms
Bit rate : 11.0 kb/s
Count of elements : 2
Stream size : 7.09 KiB (0%)
Title : Forced
Language : German
Default : No
Forced : No

Text #5
ID : 7
Format : VobSub
Muxing mode : zlib
Codec ID : S_VOBSUB
Codec ID/Info : Picture based subtitle format used on DVDs
Duration : 1 h 59 min
Bit rate : 4 705 b/s
Count of elements : 1246
Stream size : 4.04 MiB (0%)
Language : Spanish
Default : No
Forced : No

Menu
00:00:00.000 : en:Chapter 01
00:07:25.528 : en:Chapter 02
00:13:00.029 : en:Chapter 03
00:22:24.760 : en:Chapter 04
00:30:12.101 : en:Chapter 05
00:36:20.303 : en:Chapter 06
00:42:31.423 : en:Chapter 07
00:48:45.547 : en:Chapter 08
00:55:37.709 : en:Chapter 09
01:01:30.269 : en:Chapter 10
01:12:07.573 : en:Chapter 11
01:21:14.786 : en:Chapter 12
01:30:10.655 : en:Chapter 13
01:36:43.339 : en:Chapter 14
01:47:47.627 : en:Chapter 15
01:56:15.760 : en:Chapter 16


Source Information

Code:

Release : Expendables 3 2014 2in1 1080p BluRay AVC TrueHD 7 1 Atmos-HDAccess
Release : The.Expendables.3.2014.EXTENDED.MULTi.COMPLETE.BLURAY-XORBiTANT (additional featurettes)
Complete name : Expendables_3_t08.mkv
File size : 24.0 GiB
Duration : 2 h 11 min
Overall bit rate mode : Variable
Overall bit rate : 26.1 Mb/s


Files:

The Expendables 3 2014 Unrated REPACK (1080p Bluray x265 HEVC 10bit AAC 7.1 Tigole) Featurettes
  • Action for Hire.mkv (87.3 MB)
  • Extended Scene - Christmas Runs the Gauntlet.mkv (25.9 MB)
  • Gag Reel.mkv (35.6 MB)
  • Into the Battle.mkv (78.2 MB)
  • New Blood - Stacked and Jacked.mkv (181.9 MB)
  • Real Action Heroes.mkv (73.0 MB)
  • The Expendables 3 Documentary.mkv (581.7 MB)
  • The Total Action Package.mkv (75.1 MB)
  • The Expendables 3 2014 Unrated (1080p x265 10bit Tigole).mkv (3.1 GB)

Comments

Code:

  • udp://tracker.torrent.eu.org:451/announce
  • udp://tracker.opentrackr.org:1337/announce
  • udp://tracker.coppersurfer.tk:6969/announce