Exodus - Gods and Kings 2014 (1080p Bluray x265 HEVC 10bit AAC 7....

  • Category Movies
  • Type HEVC/x265
  • Language English
  • Total size 3.6 GB
  • Uploaded By UTRplus
  • Downloads 1523
  • Last checked 1 month ago
  • Date uploaded 2 months ago
  • Seeders 31
  • Leechers 15

Exodus: Gods and Kings

ActionAdventureDrama

The defiant leader Moses rises up against the Egyptian Pharaoh Ramses, setting 600,000 slaves on a monumental journey of escape from Egypt and its terrifying cycle of deadly plagues.

Infohash : 4AE640B9EFCBA77A23E860220572183A4B432C3D



Exodus: Gods and Kings 2014 in 1080p, encoded with x265 in HEVC and AAC 7.1 English, with subtitles!
Encoded using the time consuming 2 pass, 10 bit color at 2750 kbps, from a Blu-ray source, for the highest quality possible.



Media Information

Code:

General
Format : Matroska
Format version : Version 4 / Version 2
File size : 3.42 GiB
Duration : 2 h 30 min
Overall bit rate : 3 259 kb/s
Movie name : Exodus: Gods and Kings
Encoded date : UTC 2017-05-21 07:16:02
Writing application : mkvmerge v9.6.0 ('Slave To Your Mind') 64bit
Writing library : libebml v1.3.4 + libmatroska v1.4.5

Video
ID : 1
Format : HEVC
Format/Info : High Efficiency Video Coding
Format profile : Main [email protected]@Main
Codec ID : V_MPEGH/ISO/HEVC
Duration : 2 h 30 min
Bit rate : 2 743 kb/s
Width : 1 920 pixels
Height : 800 pixels
Display aspect ratio : 2.40:1
Frame rate mode : Constant
Frame rate : 23.976 (24000/1001) FPS
Color space : YUV
Chroma subsampling : 4:2:0
Bit depth : 10 bits
Bits/(Pixel*Frame) : 0.074
Stream size : 2.88 GiB (84%)
Writing library : x265 2.4+22-c102c809fc4f:[Windows][GCC 6.3.0][64 bit] 10bit
Encoding settings : cpuid=1173503 / frame-threads=3 / numa-pools=8 / wpp / no-pmode / no-pme / no-psnr / no-ssim / log-level=2 / input-csp=1 / input-res=1920x800 / interlace=0 / total-frames=216086 / level-idc=0 / high-tier=1 / uhd-bd=0 / ref=4 / no-allow-non-conformance / no-repeat-headers / annexb / no-aud / no-hrd / info / hash=0 / no-temporal-layers / open-gop / min-keyint=23 / keyint=250 / bframes=4 / b-adapt=2 / b-pyramid / bframe-bias=0 / rc-lookahead=25 / lookahead-slices=4 / scenecut=40 / no-intra-refresh / ctu=64 / min-cu-size=8 / rect / no-amp / max-tu-size=32 / tu-inter-depth=1 / tu-intra-depth=1 / limit-tu=0 / rdoq-level=2 / dynamic-rd=0.00 / no-ssim-rd / signhide / no-tskip / nr-intra=0 / nr-inter=0 / no-constrained-intra / strong-intra-smoothing / max-merge=3 / limit-refs=3 / limit-modes / me=3 / subme=3 / merange=57 / temporal-mvp / weightp / no-weightb / no-analyze-src-pics / deblock=0:0 / sao / no-sao-non-deblock / rd=4 / no-early-skip / rskip / no-fast-intra / no-tskip-fast / no-cu-lossless / no-b-intra / rdpenalty=0 / psy-rd=2.00 / psy-rdoq=1.00 / no-rd-refine / analysis-mode=0 / no-lossless / cbqpoffs=0 / crqpoffs=0 / rc=abr / bitrate=2743 / qcomp=0.60 / qpstep=4 / stats-write=0 / stats-read=2 / cplxblur=20.0 / qblur=0.5 / ipratio=1.40 / pbratio=1.30 / aq-mode=2 / aq-strength=1.00 / cutree / zone-count=0 / no-strict-cbr / qg-size=32 / no-rc-grain / qpmax=69 / qpmin=0 / sar=0 / overscan=0 / videoformat=5 / range=0 / colorprim=2 / transfer=2 / colormatrix=2 / chromaloc=0 / display-window=0 / max-cll=0,0 / min-luma=0 / max-luma=1023 / log2-max-poc-lsb=8 / vui-timing-info / vui-hrd-info / slices=1 / opt-qp-pps / opt-ref-list-length-pps / no-multi-pass-opt-rps / scenecut-bias=0.05 / no-opt-cu-delta-qp / no-aq-motion / no-hdr / no-hdr-opt / no-dhdr10-opt / refine-level=5 / no-limit-sao / ctu-info=0
Default : Yes
Forced : No

Audio #1
ID : 2
Format : AAC
Format/Info : Advanced Audio Codec
Format profile : LC
Codec ID : A_AAC
Duration : 2 h 30 min
Bit rate : 419 kb/s
Channel(s) : 8 channels
Channel positions : Front: L C R, Side: 4, LFE
Sampling rate : 48.0 kHz
Frame rate : 46.875 FPS (1024 spf)
Compression mode : Lossy
Delay relative to video : 20 ms
Stream size : 451 MiB (13%)
Language : English
Default : Yes
Forced : No

Audio #2
ID : 3
Format : AAC
Format/Info : Advanced Audio Codec
Format profile : HE-AAC / LC
Codec ID : A_AAC
Duration : 2 h 30 min
Bit rate : 66.2 kb/s
Channel(s) : 2 channels
Channel positions : Front: L R
Sampling rate : 48.0 kHz / 24.0 kHz
Frame rate : 23.438 FPS (1024 spf)
Compression mode : Lossy
Delay relative to video : 40 ms
Stream size : 70.8 MiB (2%)
Title : Commentary
Language : English
Default : No
Forced : No

Text #1
ID : 4
Format : VobSub
Muxing mode : zlib
Codec ID : S_VOBSUB
Codec ID/Info : Picture based subtitle format used on DVDs
Duration : 2 h 19 min
Bit rate : 3 224 b/s
Count of elements : 1254
Stream size : 3.21 MiB (0%)
Language : English
Default : No
Forced : No

Text #2
ID : 5
Format : VobSub
Muxing mode : zlib
Codec ID : S_VOBSUB
Codec ID/Info : Picture based subtitle format used on DVDs
Duration : 2 h 29 min
Bit rate : 3 244 b/s
Count of elements : 1192
Stream size : 3.46 MiB (0%)
Language : German
Default : No
Forced : No

Text #3
ID : 6
Format : VobSub
Muxing mode : zlib
Codec ID : S_VOBSUB
Codec ID/Info : Picture based subtitle format used on DVDs
Duration : 2 h 29 min
Bit rate : 32 b/s
Count of elements : 10
Stream size : 35.8 KiB (0%)
Title : Forced
Language : German
Default : No
Forced : No

Text #4
ID : 7
Format : VobSub
Muxing mode : zlib
Codec ID : S_VOBSUB
Codec ID/Info : Picture based subtitle format used on DVDs
Duration : 2 h 30 min
Bit rate : 10.1 kb/s
Count of elements : 2279
Stream size : 10.9 MiB (0%)
Title : Commentary
Language : German
Default : No
Forced : No

Text #5
ID : 8
Format : VobSub
Muxing mode : zlib
Codec ID : S_VOBSUB
Codec ID/Info : Picture based subtitle format used on DVDs
Duration : 2 h 29 min
Bit rate : 3 114 b/s
Count of elements : 1267
Stream size : 3.32 MiB (0%)
Language : Italian
Default : No
Forced : No

Text #6
ID : 9
Format : VobSub
Muxing mode : zlib
Codec ID : S_VOBSUB
Codec ID/Info : Picture based subtitle format used on DVDs
Duration : 2 h 30 min
Bit rate : 9 068 b/s
Count of elements : 2247
Stream size : 9.74 MiB (0%)
Title : Commentary
Language : Italian
Default : No
Forced : No

Menu
00:00:00.000 : en:Chapter 01
00:03:55.401 : en:Chapter 02
00:06:51.994 : en:Chapter 03
00:11:47.707 : en:Chapter 04
00:14:29.451 : en:Chapter 05
00:18:37.658 : en:Chapter 06
00:22:15.834 : en:Chapter 07
00:26:51.151 : en:Chapter 08
00:30:31.287 : en:Chapter 09
00:36:41.365 : en:Chapter 10
00:40:48.320 : en:Chapter 11
00:44:49.812 : en:Chapter 12
00:48:47.799 : en:Chapter 13
00:51:16.448 : en:Chapter 14
00:54:22.217 : en:Chapter 15
00:57:32.657 : en:Chapter 16
01:00:31.169 : en:Chapter 17
01:04:41.544 : en:Chapter 18
01:06:49.046 : en:Chapter 19
01:11:01.882 : en:Chapter 20
01:16:53.692 : en:Chapter 21
01:21:18.039 : en:Chapter 22
01:24:30.356 : en:Chapter 23
01:28:08.533 : en:Chapter 24
01:30:54.157 : en:Chapter 25
01:34:14.565 : en:Chapter 26
01:37:20.543 : en:Chapter 27
01:39:20.204 : en:Chapter 28
01:42:40.320 : en:Chapter 29
01:46:50.070 : en:Chapter 30
01:49:02.661 : en:Chapter 31
01:52:18.314 : en:Chapter 32
01:57:29.876 : en:Chapter 33
02:00:23.841 : en:Chapter 34
02:05:41.325 : en:Chapter 35
02:07:31.268 : en:Chapter 36
02:13:38.468 : en:Chapter 37
02:16:21.882 : en:Chapter 38
02:19:39.996 : en:Chapter 39
02:23:19.799 : en:Chapter 40


Source Information

Code:

Complete name : Exodus_Gods_and_Kings_t12.mkv
File size : 35.9 GiB
Duration : 2 h 30 min
Overall bit rate mode : Variable
Overall bit rate : 34.3 Mb/s


Files:

Exodus - Gods and Kings 2014 (1080p Bluray x265 HEVC 10bit AAC 7.1 Tigole)
  • Exodus - Gods and Kings 2014 (1080p x265 10bit Tigole).mkv (3.4 GB)
  • Featurettes
    • Deleted and Extended Scenes.mkv (141.1 MB)

Comments

Code:

  • udp://tracker.torrent.eu.org:451/announce
  • udp://tracker.opentrackr.org:1337/announce
  • udp://tracker.coppersurfer.tk:6969/announce