Beauty and the Beast - La Bella e la Bestia (2017).720p.H264.Ital...

  • Category Movies
  • Type HD
  • Language English
  • Total size 4.0 GB
  • Uploaded By robbyrs
  • Downloads 798
  • Last checked 1 month ago
  • Date uploaded 2 months ago
  • Seeders 109
  • Leechers 24

Beauty and the Beast

FantasyRomance

A live-action adaptation of Disney's version of the classic 'Beauty and the Beast' tale of a cursed prince and a beautiful young woman who helps him break the spell.

Infohash : EEFFDA7657C82E2164D72323CAB418F16D140F7F

Beauty and the Beast - La Bella e la Bestia (2017).720p.H264.Italian.English.Ac3.5.1.sub.ita.iCV-MIRCrew




NO FOUND ONLY ORIGINAL RELEASE





My release is always in double track audio italian and Original audio
for select it use VLC or dvd player home
not use wmp

La Bella e la Bestia - Beauty and the Beast (2017)

PRESENTI ANCHE i SOTTOTITOLI

ESTERNI IN SRT (ita/eng)








DATA USCITA: 16 marzo 2017
GENERE: Fantasy, Sentimentale
ANNO: 2017
REGIA: Bill Condon


SCENEGGIATURA: Stephen Chbosky, Evan Spiliotopoulos
FOTOGRAFIA: Tobias A. Schliessler
MONTAGGIO: Virginia Katz
MUSICHE: Alan Menken
PRODUZIONE: Mandeville Films, Walt Disney Pictures
DISTRIBUZIONE: Walt Disney Pictures
PAESE: USA
DURATA: 123 Min
FORMATO: 2D e 3D





ATTORI: Emma Watson, Dan Stevens, Luke Evans, Emma Thompson, Kevin Kline, Josh Gad, Ewan McGregor, Ian McKellen, Audra McDonald, Stanley Tucci, Gugu Mbatha-Raw, Hattie Morahan, Adrian Schiller, Nathan Mack, Henry Garrett



La celebre fiaba La Bella e la Bestia torna sul grande schermo in una nuova rivisitazione live-action dell'indimenticabile classico d'animazione Disney del 1991. Villeneuve è un paesino immerso nella provincia francese, dove la vita scorre lenta e monotona. Belle, figlia di Maurice, un eccentrico artista locale, sogna per sé una vita diversa e conta i giorni che la separano da una fantomatica avventura..........



An adaptation of the fairy tale about a monstrous-looking prince and a young woman who fall in love.
















[spoiler]
General
Unique ID : 181589404938247011192382006196255743751 (0x889CD8E5BAE6F389ADDBA14A10B25F07)
Complete name : La Bella e la Bestia - Beauty and the Beast (2017).720p.H264.ita.eng.sub.ita.eng.iCV-MIRCrew.mkv
Format : Matroska
Format version : Version 2
File size : 3.98 GiB
Duration : 2h 9mn
Overall bit rate : 4 402 Kbps
Movie name : www.icv-crew.org
Encoded date : UTC 2017-06-15 19:53:28
Writing application : mkvmerge v5.4.0 ('Piper') built on Mar 10 2012 13:34:39
Writing library : Lavf54.63.100
COPYRIGHT : robbyrs

Video
ID : 1
Format : AVC
Format/Info : Advanced Video Codec
Format profile : [email protected]
Format settings, CABAC : Yes
Format settings, ReFrames : 2 frames
Muxing mode : Header stripping
Codec ID : V_MPEG4/ISO/AVC
Duration : 2h 9mn
Bit rate : 3 500 Kbps
Width : 1 280 pixels
Height : 544 pixels
Display aspect ratio : 2.40:1
Original display aspect ratio : 2.40:1
Frame rate mode : Variable
Frame rate : 23.976 fps
Color space : YUV
Chroma subsampling : 4:2:0
Bit depth : 8 bits
Scan type : Progressive
Bits/(Pixel*Frame) : 0.210
Stream size : 3.09 GiB (78%)
Writing library : x264 core 130 r2273
Encoding settings : cabac=1 / ref=2 / deblock=1:0:0 / analyse=0x1:0x131 / me=hex / subme=7 / psy=1 / psy_rd=1.00:0.00 / mixed_ref=0 / me_range=16 / chroma_me=1 / trellis=1 / 8x8dct=0 / cqm=0 / deadzone=21,11 / fast_pskip=1 / chroma_qp_offset=-2 / threads=12 / lookahead_threads=2 / sliced_threads=0 / nr=0 / decimate=1 / interlaced=0 / bluray_compat=0 / constrained_intra=0 / bframes=3 / b_pyramid=0 / b_adapt=1 / b_bias=0 / direct=3 / weightb=1 / open_gop=0 / weightp=2 / keyint=230 / keyint_min=23 / scenecut=40 / intra_refresh=0 / rc_lookahead=40 / rc=abr / mbtree=1 / bitrate=3500 / ratetol=1.0 / qcomp=0.60 / qpmin=10 / qpmax=69 / qpstep=4 / vbv_maxrate=24000 / vbv_bufsize=24000 / nal_hrd=none / ip_ratio=1.40 / aq=1:1.00
Language : Italian
Default : Yes
Forced : No
DURATION : 02:09:16.803000000
NUMBER_OF_FRAMES : 185977
NUMBER_OF_BYTES : 9100683334
_STATISTICS_WRITING_APP : mkvmerge v8.3.0 ('Over the Horizon') 64bit
_STATISTICS_WRITING_DATE_UTC : 2017-05-18 22:24:32
_STATISTICS_TAGS : BPS DURATION NUMBER_OF_FRAMES NUMBER_OF_BYTES

Audio #1
ID : 2
Format : AC-3
Format/Info : Audio Coding 3
Mode extension : CM (complete main)
Muxing mode : Header stripping
Codec ID : A_AC3
Duration : 2h 9mn
Bit rate mode : Constant
Bit rate : 448 Kbps
Channel(s) : 6 channels
Channel positions : Front: L C R, Side: L R, LFE
Sampling rate : 48.0 KHz
Bit depth : 16 bits
Compression mode : Lossy
Delay relative to video : -42ms
Stream size : 414 MiB (10%)
Language : English
Default : No
Forced : No
DURATION : 02:09:16.875000000
NUMBER_OF_FRAMES : 727207
NUMBER_OF_BYTES : 1463140484
_STATISTICS_WRITING_APP : mkvmerge v8.3.0 ('Over the Horizon') 64bit
_STATISTICS_WRITING_DATE_UTC : 2017-05-18 22:24:32
_STATISTICS_TAGS : BPS DURATION NUMBER_OF_FRAMES NUMBER_OF_BYTES

Audio #2
ID : 3
Format : AC-3
Format/Info : Audio Coding 3
Mode extension : CM (complete main)
Muxing mode : Header stripping
Codec ID : A_AC3
Duration : 2h 9mn
Bit rate mode : Constant
Bit rate : 448 Kbps
Channel(s) : 6 channels
Channel positions : Front: L C R, Side: L R, LFE
Sampling rate : 48.0 KHz
Bit depth : 16 bits
Compression mode : Lossy
Delay relative to video : -5ms
Stream size : 414 MiB (10%)
Language : English
Default : Yes
Forced : No

Text
ID : 4
Format : UTF-8
Codec ID : S_TEXT/UTF8
Codec ID/Info : UTF-8 Plain Text
Title : La Bella e la Bestia - Beauty and the Beast (2017).720p.H264.ita.eng.sub.ta.eng.iCV-MIRCrew
Language : Italian
Default : Yes
Forced : No

Menu
00:00:00.000 : :00:00:00.000
00:04:36.276 : :00:04:36.276
00:08:06.528 : :00:08:06.528
00:11:18.261 : :00:11:18.261
00:15:21.546 : :00:15:21.546
00:18:57.386 : :00:18:57.386
00:25:05.921 : :00:25:05.921
00:31:41.566 : :00:31:41.566
00:36:08.708 : :00:36:08.708
00:42:32.258 : :00:42:32.258
00:47:01.318 : :00:47:01.318
00:54:44.990 : :00:54:44.990
01:00:43.557 : :01:00:43.557
01:07:40.932 : :01:07:40.932
01:14:38.224 : :01:14:38.224
01:19:43.696 : :01:19:43.696
01:22:02.751 : :01:22:02.751
01:28:53.370 : :01:28:53.370
01:34:01.302 : :01:34:01.302
01:38:10.176 : :01:38:10.176
01:45:23.692 : :01:45:23.692
01:49:13.964 : :01:49:13.964
01:55:54.197 : :01:55:54.197
01:58:49.497 : :01:58:49.497


[/spoiler]



Files:

La Bella e la Bestia - Beauty and the Beast (2017).720p.H264.ita.eng.sub.ita.eng.iCV-MIRCrew
  • La Bella e la Bestia - Beauty and the Beast (2017).720p.H264.ita.eng.sub.ita.eng.iCV-MIRCrew.eng.idx (214.9 KB)
  • La Bella e la Bestia - Beauty and the Beast (2017).720p.H264.ita.eng.sub.ita.eng.iCV-MIRCrew.eng.sub (18.1 MB)
  • La Bella e la Bestia - Beauty and the Beast (2017).720p.H264.ita.eng.sub.ita.eng.iCV-MIRCrew.ita.srt (107.7 KB)
  • La Bella e la Bestia - Beauty and the Beast (2017).720p.H264.ita.eng.sub.ita.eng.iCV-MIRCrew.mkv (4.0 GB)

There are currently no comments. Feel free to leave one :)

Code:

  • udp://tracker.coppersurfer.tk:6969/announce
  • udp://tracker.opentrackr.org:1337/announce
  • udp://tracker.leechers-paradise.org:6969/announce
  • udp://9.rarbg.com:2710/announce
  • udp://9.rarbg.to:2710/announce
  • udp://9.rarbg.me:2710/announce
  • udp://glotorrents.pw:6969/announce
  • udp://tracker.openbittorrent.com:80/announce
  • udp://tracker.pubt.net:2710/announce