Planes - Fire & Rescue 2014 (1080p Bluray x265 HEVC 10bit AAC 7.1...

  • Category Movies
  • Type HEVC/x265
  • Language English
  • Total size 2.1 GB
  • Uploaded By UTRplus
  • Downloads 694
  • Last checked 1 week ago
  • Date uploaded 1 week ago
  • Seeders 19
  • Leechers 5

Planes: Fire & Rescue

AdventureAnimationComedyFamily

When world-famous air racer Dusty learns that his engine is damaged and he may never race again, he must shift gears and is launched into the world of aerial firefighting. Dusty joins forces with veteran fire and rescue helicopter Blade Ranger and his team, a bunch of all-terrain vehicles known as The Smokejumpers. Together, the fearless team battles a massive wildfire, and Dusty learns what it takes to become a true hero.

Infohash : 3F73D5C40880245799F819A59AA6D7C5D7F70C8E



Planes: Fire & Rescue 2014 in 1080p, encoded with x265 in HEVC and AAC 7.1 English, with subtitles!
Encoded using the time consuming 2 pass, 10 bit color at 2750 kbps, from a Blu-ray source, for the highest quality possible.



Media Information

Code:

General
Format : Matroska
Format version : Version 4 / Version 2
File size : 1.86 GiB
Duration : 1 h 23 min
Overall bit rate : 3 189 kb/s
Movie name : Planes: Fire And Rescue
Encoded date : UTC 2017-05-19 23:35:11
Writing application : mkvmerge v9.6.0 ('Slave To Your Mind') 64bit
Writing library : libebml v1.3.4 + libmatroska v1.4.5

Video
ID : 1
Format : HEVC
Format/Info : High Efficiency Video Coding
Format profile : Main [email protected]@Main
Codec ID : V_MPEGH/ISO/HEVC
Duration : 1 h 23 min
Bit rate : 2 768 kb/s
Width : 1 920 pixels
Height : 804 pixels
Display aspect ratio : 2.40:1
Frame rate mode : Constant
Frame rate : 23.976 (24000/1001) FPS
Color space : YUV
Chroma subsampling : 4:2:0
Bit depth : 10 bits
Bits/(Pixel*Frame) : 0.075
Stream size : 1.62 GiB (87%)
Writing library : x265 2.4+22-c102c809fc4f:[Windows][GCC 6.3.0][64 bit] 10bit
Encoding settings : cpuid=1173503 / frame-threads=3 / numa-pools=8 / wpp / no-pmode / no-pme / no-psnr / no-ssim / log-level=2 / input-csp=1 / input-res=1920x804 / interlace=0 / total-frames=120324 / level-idc=0 / high-tier=1 / uhd-bd=0 / ref=4 / no-allow-non-conformance / no-repeat-headers / annexb / no-aud / no-hrd / info / hash=0 / no-temporal-layers / open-gop / min-keyint=23 / keyint=250 / bframes=4 / b-adapt=2 / b-pyramid / bframe-bias=0 / rc-lookahead=25 / lookahead-slices=4 / scenecut=40 / no-intra-refresh / ctu=64 / min-cu-size=8 / rect / no-amp / max-tu-size=32 / tu-inter-depth=1 / tu-intra-depth=1 / limit-tu=0 / rdoq-level=2 / dynamic-rd=0.00 / no-ssim-rd / signhide / no-tskip / nr-intra=0 / nr-inter=0 / no-constrained-intra / strong-intra-smoothing / max-merge=3 / limit-refs=3 / limit-modes / me=3 / subme=3 / merange=57 / temporal-mvp / weightp / no-weightb / no-analyze-src-pics / deblock=0:0 / sao / no-sao-non-deblock / rd=4 / no-early-skip / rskip / no-fast-intra / no-tskip-fast / no-cu-lossless / no-b-intra / rdpenalty=0 / psy-rd=2.00 / psy-rdoq=1.00 / no-rd-refine / analysis-mode=0 / no-lossless / cbqpoffs=0 / crqpoffs=0 / rc=abr / bitrate=2767 / qcomp=0.60 / qpstep=4 / stats-write=0 / stats-read=2 / cplxblur=20.0 / qblur=0.5 / ipratio=1.40 / pbratio=1.30 / aq-mode=2 / aq-strength=1.00 / cutree / zone-count=0 / no-strict-cbr / qg-size=32 / no-rc-grain / qpmax=69 / qpmin=0 / sar=0 / overscan=0 / videoformat=5 / range=0 / colorprim=2 / transfer=2 / colormatrix=2 / chromaloc=0 / display-window=0 / max-cll=0,0 / min-luma=0 / max-luma=1023 / log2-max-poc-lsb=8 / vui-timing-info / vui-hrd-info / slices=1 / opt-qp-pps / opt-ref-list-length-pps / no-multi-pass-opt-rps / scenecut-bias=0.05 / no-opt-cu-delta-qp / no-aq-motion / no-hdr / no-hdr-opt / no-dhdr10-opt / refine-level=5 / no-limit-sao / ctu-info=0
Default : Yes
Forced : No

Audio
ID : 2
Format : AAC
Format/Info : Advanced Audio Codec
Format profile : LC
Codec ID : A_AAC
Duration : 1 h 23 min
Bit rate : 398 kb/s
Channel(s) : 8 channels
Channel positions : Front: L C R, Side: 4, LFE
Sampling rate : 48.0 kHz
Frame rate : 46.875 FPS (1024 spf)
Compression mode : Lossy
Delay relative to video : 20 ms
Stream size : 238 MiB (12%)
Language : English
Default : Yes
Forced : No

Text #1
ID : 3
Format : VobSub
Muxing mode : zlib
Codec ID : S_VOBSUB
Codec ID/Info : Picture based subtitle format used on DVDs
Duration : 1 h 22 min
Bit rate : 8 091 b/s
Count of elements : 1487
Stream size : 4.78 MiB (0%)
Language : English
Default : No
Forced : No

Text #2
ID : 4
Format : VobSub
Muxing mode : zlib
Codec ID : S_VOBSUB
Codec ID/Info : Picture based subtitle format used on DVDs
Duration : 1 h 23 min
Bit rate : 5 698 b/s
Count of elements : 1175
Stream size : 3.40 MiB (0%)
Language : German
Default : No
Forced : No

Text #3
ID : 5
Format : VobSub
Muxing mode : zlib
Codec ID : S_VOBSUB
Codec ID/Info : Picture based subtitle format used on DVDs
Duration : 1 h 23 min
Bit rate : 7 014 b/s
Count of elements : 1258
Stream size : 4.18 MiB (0%)
Language : Italian
Default : No
Forced : No

Menu
00:00:00.000 : en:Chapter 01
00:03:27.790 : en:Chapter 02
00:07:48.593 : en:Chapter 03
00:12:36.005 : en:Chapter 04
00:17:38.849 : en:Chapter 05
00:22:55.165 : en:Chapter 06
00:27:45.288 : en:Chapter 07
00:32:37.205 : en:Chapter 08
00:35:24.789 : en:Chapter 09
00:38:31.017 : en:Chapter 10
00:41:38.287 : en:Chapter 11
00:47:21.046 : en:Chapter 12
00:55:00.714 : en:Chapter 13
00:57:29.028 : en:Chapter 14
01:00:33.880 : en:Chapter 15
01:05:22.710 : en:Chapter 16
01:09:07.685 : en:Chapter 17
01:13:55.264 : en:Chapter 18


Source Information

Code:

Complete name : Planes_Fire_And_Rescue_t03.mkv
File size : 22.4 GiB
Duration : 1 h 23 min
Overall bit rate mode : Variable
Overall bit rate : 38.4 Mb/s


Files:

Planes - Fire & Rescue 2014 (1080p Bluray x265 HEVC 10bit AAC 7.1 Tigole) Featurettes
  • Additional Animated Shorts.mkv (40.2 MB)
  • Air Attack - Firefighters from the Sky.mkv (54.3 MB)
  • CHoPs TV Promo.mkv (7.1 MB)
  • Deleted Scenes.mkv (37.5 MB)
  • Short - Mickey Mouse in 'O Sole Minnie [it].mkv (41.9 MB)
  • Spencer Lee - Still I Fly.mkv (26.7 MB)
  • Welcome to Piston Peak!.mkv (27.3 MB)
  • Planes - Fire & Rescue 2014 (1080p x265 10bit Tigole).mkv (1.9 GB)

Comments

Code:

  • udp://tracker.torrent.eu.org:451/announce
  • udp://tracker.opentrackr.org:1337/announce
  • udp://tracker.coppersurfer.tk:6969/announce