Baywatch 2017 UNCENSORED HD-TS x264-P2P

  • Category Movies
  • Type h.264/x264
  • Language English
  • Total size 1.7 GB
  • Uploaded By Silmarillion
  • Downloads 125825
  • Last checked 2 months ago
  • Date uploaded 2 months ago
  • Seeders 3777
  • Leechers 1758

Baywatch

ActionComedy

Devoted lifeguard Mitch Buchannon butts heads with a brash new recruit. Together, they uncover a local criminal plot that threatens the future of the Bay.

Infohash : FEFEDA06A49A5ED18B09F48F0E0740F561D62E8D



http://www.imdb.com/title/tt1469304/

Devoted lifeguard Mitch Buchannon butts heads with a brash new recruit, as they uncover a criminal plot that threatens the future of the bay.
Director: Seth Gordon
Writers: Michael Berk (based on the series "Baywatch" created by), Douglas Schwartz (based on the series "Baywatch" created by)
Stars: Dwayne Johnson, Zac Efron, Alexandra Daddario
Genres: Action | Comedy | Drama
Country: USA

Baywatch 2017 UNCENSORED HD-TS x264-P2P

iNFORMATION:

Note: Full Movie UNCENSORED

Format : Matroska
File size : 1.72 GiB
Duration : 1 h 47 min
Overall bit rate mode : Variable
Overall bit rate : 2 288 kb/s

Video
ID : 1
Format : AVC
Format/Info : Advanced Video Codec
Format profile : [email protected]
Format settings, CABAC : Yes
Format settings, ReFrames : 4 frames
Codec ID : V_MPEG4/ISO/AVC
Duration : 1 h 47 min
Bit rate mode : Variable
Bit rate : 2 100 kb/s
Maximum bit rate : 62.5 Mb/s
Width : 640 pixels
Height : 272 pixels
Display aspect ratio : 2.35:1
Frame rate mode : Constant
Frame rate : 30.000 FPS
Color space : YUV
Chroma subsampling : 4:2:0
Bit depth : 8 bits
Scan type : Progressive
Bits/(Pixel*Frame) : 0.402
Stream size : 1.57 GiB (92%)

Audio
ID : 2
Format : MPEG Audio
Format version : Version 1
Format profile : Layer 3
Codec ID : A_MPEG/L3
Codec ID/Hint : MP3
Duration : 1 h 47 min
Bit rate mode : Constant
Bit rate : 192 kb/s
Channel(s) : 2 channels
Sampling rate : 44.1 kHz
Frame rate : 38.281 FPS (1152 spf)
Compression mode : Lossy
Delay relative to video : 7 ms
Stream size : 148 MiB (8%)
Writing library : LAME3.99.5
Default : Yes
Forced : No

Files:

Baywatch 2017 UNCENSORED HD-TS x264-P2P
  • Baywatch.2017.TS.mkv (1.7 GB)
  • Sample.mkv (15.7 MB)

Comments

Code:

  • udp://tracker.coppersurfer.tk:6969/announce
  • udp://tracker.leechers-paradise.org:6969/announce
  • udp://tracker.pirateparty.gr:6969/announce
  • udp://tracker.coppersurfer.tk:6969
  • udp://eddie4.nl:6969/announce
  • udp://tracker.zer0day.to:1337/announce
  • udp://9.rarbg.me:2710/announce
  • udp://9.rarbg.to:2710/announce
  • udp://public.popcorn-tracker.org:6969/announce
  • udp://p4p.arenabg.ch:1337/announce
  • udp://tracker.grepler.com:6969/announce
  • udp://ipv4.tracker.harry.lu:80/announce
  • udp://tracker.opentrackr.org:1337/announce
  • udp://p4p.arenabg.com:1337/announce
  • udp://shadowshq.yi.org:6969/announce