Half Girlfriend (2017) - 1CD - DesiPreDVD-Rip - Hindi - x264 - MP...

  • Category Movies
  • Type Divx/Xvid
  • Language Hindi
  • Total size 701.4 MB
  • Uploaded By Mafiaking
  • Downloads 21874
  • Last checked 2 months ago
  • Date uploaded 2 months ago
  • Seeders 516
  • Leechers 1364

Infohash : A12B60AAABC1B2F37EEC88D0F9201EE8AD25833B










Quote:







Ratings: 4.2/10

Genere: Drama, Romance

General
Unique ID : 212420850159279627052498016965127001090 (0x9FCEC4824FBBD407AE7B0E27DBB35402)
Complete name : Half Girlfriend (2017) - 1CD - DesiPreDVD-Rip - Hindi - x264 - MP3 - Mafiaking - M2Tv.mkv
Format : Matroska
Format version : Version 4 / Version 2
File size : 694 MiB
Duration : 1 h 56 min
Overall bit rate : 832 kb/s
Movie name : Half Girlfriend (2017) - 1CD - DesiPreDVD-Rip - Hindi - x264 - MP3 - Mafiaking - M2Tv
Encoded date : UTC 2017-05-21 19:12:18
Writing application : mkvmerge v7.7.0 ('Six Voices') 32bit built on Feb 28 2015 23:23:00
Writing library : libebml v1.3.1 + libmatroska v1.4.2

Video
ID : 1
Format : AVC
Format/Info : Advanced Video Codec
Format profile : [email protected]
Format settings, CABAC : Yes
Format settings, ReFrames : 4 frames
Codec ID : V_MPEG4/ISO/AVC
Duration : 1 h 56 min
Bit rate : 750 kb/s
Width : 640 pixels
Height : 272 pixels
Display aspect ratio : 2.35:1
Frame rate mode : Constant
Frame rate : 29.970 (30000/1001) FPS
Color space : YUV
Chroma subsampling : 4:2:0
Bit depth : 8 bits
Scan type : Progressive
Bits/(Pixel*Frame) : 0.144
Stream size : 626 MiB (90%)
Title : Mafiaking
Language : Hindi
Default : Yes
Forced : No

Audio
ID : 2
Format : MPEG Audio
Format version : Version 1
Format profile : Layer 3
Mode : Joint stereo
Mode extension : MS Stereo
Codec ID : A_MPEG/L3
Codec ID/Hint : MP3
Duration : 1 h 56 min
Bit rate mode : Constant
Bit rate : 80.0 kb/s
Channel(s) : 2 channels
Sampling rate : 32.0 kHz
Frame rate : 27.778 FPS (1152 spf)
Compression mode : Lossy
Stream size : 66.8 MiB (10%)
Title : Mafiaking
Writing library : LAME3.99r
Language : Hindi
Default : Yes
Forced : No

SAMPLE WITH IN TORRENT






**To View Image In Full Size Click on Thumbnails**

Files:

Half Girlfriend (2017) 1CD PDVD-Rip x264 MP3 Mafiaking M2Tv
  • SaMple.mkv (7.1 MB)
  • Half Girlfriend (2017) 1CD PDVD-Rip x264 MP3 Mafiaking M2Tv.mkv (694.3 MB)

Comments

Code:

  • udp://tracker.coppersurfer.tk:6969/announce
  • udp://thetracker.org:80/announce
  • udp://eddie4.nl:6969/announce
  • udp://zer0day.ch:1337/announce
  • udp://tracker.sktorrent.net:6969/announce
  • udp://9.rarbg.me:2710/announce
  • udp://9.rarbg.to:2710/announce
  • udp://torrent.gresille.org:80/announce
  • udp://tracker.aletorrenty.pl:2710/announce
  • udp://tracker.piratepublic.com:1337/announce
  • udp://tracker.opentrackr.org:1337/announce
  • udp://explodie.org:6969/announce
  • udp://p4p.arenabg.ch:1337/announce